<?xml version="1.0" standalone="no"?>
<!DOCTYPE svg PUBLIC "-//W3C//DTD SVG 1.1//EN" "http://www.w3.org/Graphics/SVG/1.1/DTD/svg11.dtd" >
<svg xmlns="http://www.w3.org/2000/svg">
<metadata>
This is a custom SVG webfont generated by Font Squirrel.
Copyright   : Copyright c 2011 by OmnibusType wwwomnibustypecom with Reserved Font Name Unna
Designer    : Jorge de Buen U
Foundry     : OmnibusType 
Foundry URL : wwwomnibustypecom
</metadata>
<defs>
<font id="UnnaRegular" horiz-adv-x="942" >
<font-face units-per-em="2048" ascent="1638" descent="-410" />
<missing-glyph horiz-adv-x="450" />
<glyph unicode=" "  horiz-adv-x="450" />
<glyph unicode="&#x09;" horiz-adv-x="450" />
<glyph unicode="&#xa0;" horiz-adv-x="450" />
<glyph unicode="!" horiz-adv-x="550" d="M184 98q0 49 39 83t94.5 34t93.5 -35t38 -84q0 -47 -40 -81.5t-94 -34.5q-51 0 -91 34.5t-40 83.5zM215 1204q0 100 100 101q102 0 103 -101q0 -57 -12 -139l-27 -188q-39 -281 -39 -433q0 -33 -23 -32q-25 0 -24 32q0 152 -39 433l-27 188q-12 82 -12 139z" />
<glyph unicode="&#x22;" horiz-adv-x="516" d="M70 1229q0 82 67.5 82t67.5 -82l-41 -357q0 -35 -26.5 -35t-26.5 35zM311 1229q0 82 67.5 82t67.5 -82l-40 -357q0 -35 -27 -35t-27 35z" />
<glyph unicode="#" horiz-adv-x="1034" d="M37 397l22 82h203l107 350h-205l22 82h205l121 398h82l-121 -398h234l120 398h82l-118 -398h206l-22 -82h-209l-104 -350h206l-24 -82h-207l-125 -415h-82l125 415h-233l-125 -415h-82l125 415h-203zM344 479h236l104 350h-233z" />
<glyph unicode="$" horiz-adv-x="954" d="M178 276v218l39 2q16 -92 85 -149.5t165 -57.5q66 0 101.5 33.5t35.5 89.5q0 49 -25.5 77.5t-89.5 45.5l-163 45q-68 16 -108 66t-40 118q0 86 66.5 141.5t177.5 59.5v360h76v-369q16 -2 67 -15t74 -13q25 0 47 14l-10 -186h-37q0 66 -55.5 115t-145.5 49 q-137 0 -137 -113q0 -84 107 -111l165 -45q154 -41 154 -184q0 -96 -61.5 -153.5t-167.5 -67.5v-441h-76v441q-41 4 -108.5 22.5t-86.5 18.5q-33 -1 -49 -11z" />
<glyph unicode="%" horiz-adv-x="1122" d="M0 -106l1047 1470l75 -45l-1048 -1477zM61 1102q0 141 69 216t181 75q115 0 183.5 -76t68.5 -215q0 -141 -68.5 -216t-183.5 -75q-117 0 -183.5 76t-66.5 215zM193 1102q0 -252 118 -252q121 0 121 252q0 254 -121 254q-118 0 -118 -254zM614 152q0 141 69 215.5 t181 74.5q115 0 183.5 -75.5t68.5 -214.5q0 -141 -68.5 -216t-183.5 -75q-117 0 -183.5 76t-66.5 215zM745 152q0 -252 119 -252q121 0 121 252q0 254 -121 254q-119 0 -119 -254z" />
<glyph unicode="&#x26;" horiz-adv-x="1249" d="M45 334q0 213 170 334l150 106q-94 121 -95 234q0 98 78 165.5t189 67.5q254 0 254 -211q0 -51 -24 -100t-62 -72l-117 -74l289 -393q68 164 67 324q0 47 -29 47l-94 -4v59h309v-59l-94 4q-27 0 -26 -45q0 -195 -90 -387l184 -250q20 -27 61 -27l115 4v-57h-342l-123 166 q-66 -88 -149.5 -137t-223.5 -49q-164 0 -280.5 95t-116.5 259zM227 350q0 -129 78 -218t195 -89q156 0 278 172l-370 502l-35 -29q-70 -51 -108 -143.5t-38 -194.5zM428 1055q0 -57 39 -111l41 -55l37 -47l90 73q41 41 41 117q0 63 -40 107.5t-91 44.5q-47 0 -82 -38 t-35 -91z" />
<glyph unicode="'" horiz-adv-x="272" d="M70 1229q0 82 67.5 82t67.5 -82l-41 -357q0 -35 -26.5 -35t-26.5 35z" />
<glyph unicode="(" horiz-adv-x="520" d="M37 491.5q0 497.5 395 964.5h88q-131 -166 -211 -452.5t-80 -512t80 -512t211 -452.5h-88q-395 467 -395 964.5z" />
<glyph unicode=")" horiz-adv-x="520" d="M0 -473q131 166 211 452.5t80 512t-80 512t-211 452.5h88q395 -467 395 -964.5t-395 -964.5h-88z" />
<glyph unicode="*" horiz-adv-x="692" d="M41 1008q0 45 14.5 61t53.5 16q20 0 39.5 -24.5t72.5 -24.5q31 0 55 11q0 22 -18 55q-20 37 -45 47q-6 2 -20.5 5t-20.5 7q-27 14 -27 53q0 25 34 50.5t65 25.5q16 0 36.5 -16.5t20.5 -42.5q0 -6 -6 -19.5t-6 -25.5q0 -18 19.5 -52t37.5 -47q20 12 37.5 46t17.5 53 q0 12 -5 25.5t-5 19.5q0 27 20.5 43t34.5 16q29 0 65 -27.5t36 -45.5q0 -43 -27 -58q-6 -2 -21.5 -4t-25.5 -8q-20 -12 -39 -45q-16 -29 -20 -55q25 -10 57 -11q53 0 72.5 24.5t40.5 24.5q39 0 53 -16t14 -61t-14 -61.5t-53 -16.5q-20 0 -40 24.5t-73 24.5q-33 0 -57 -10 q0 -23 20 -56q23 -37 39 -45q8 -4 22.5 -6t22.5 -6q29 -16 29 -57q0 -18 -35 -46t-66 -28q-14 0 -34.5 16.5t-20.5 42.5q0 6 5 19.5t5 25.5q0 18 -18 52t-37 47q-23 -16 -40 -48t-17 -51q0 -12 6 -25t6 -20q0 -27 -20.5 -43t-34.5 -16q-29 0 -65 26.5t-36 47.5q0 35 25 55 q8 8 24.5 9t26.5 7q22 15 37 43q18 34 18 56q-25 10 -55 10q-53 0 -72.5 -24.5t-39.5 -24.5q-39 0 -53.5 16.5t-14.5 61.5z" />
<glyph unicode="+" d="M41 530v91h381v378h100v-378h379v-91h-379v-380h-100v380h-381z" />
<glyph unicode="," horiz-adv-x="512" d="M123 -305q53 49 97 118.5t44 116.5q0 59 -74 60q-66 0 -65 88q0 43 36 75.5t83 32.5q143 0 143 -170q0 -102 -69.5 -193.5t-155.5 -150.5z" />
<glyph unicode="-" horiz-adv-x="509" d="M45 387v113h422v-113h-422z" />
<glyph unicode="." horiz-adv-x="512" d="M123 96.5q0 53.5 38 86t95 32.5t95 -32.5t38 -86t-38 -85t-95 -31.5t-95 31.5t-38 85z" />
<glyph unicode="/" horiz-adv-x="505" d="M-10 12l448 1288l78 -18l-446 -1292z" />
<glyph unicode="0" horiz-adv-x="946" d="M61 547q0 285 105.5 427t306.5 142q203 0 307.5 -144.5t104.5 -424.5q0 -565 -412 -565t-412 565zM242 549q0 -297 51 -405.5t180 -108.5q131 0 182.5 110.5t51.5 403.5q0 299 -51.5 409.5t-182.5 110.5q-129 0 -180 -114.5t-51 -405.5z" />
<glyph unicode="1" horiz-adv-x="671" d="M125 944q104 31 211 117q45 37 82 76h31v-1055q0 -37 30 -37l99 2v-47h-424v47l100 -2q33 0 33 37v827q0 18 -9.5 27.5t-23.5 1.5l-113 -55z" />
<glyph unicode="2" d="M106 0q18 82 79 174t133.5 172t143 160t118 166t47.5 164q0 115 -53.5 176t-139.5 61q-66 0 -105.5 -33.5t-39.5 -85.5q0 -18 11 -47.5t11 -42.5q0 -35 -26.5 -58.5t-59.5 -23.5q-41 0 -68.5 30t-27.5 81q0 86 81 156.5t224 70.5q174 0 272.5 -72.5t98.5 -211.5 q0 -166 -223 -353l-125 -110q-158 -139 -221 -240h344q188 0 188 180h53q-18 -209 -14 -317q-33 4 -62 4h-92h-547z" />
<glyph unicode="3" horiz-adv-x="901" d="M61 190q0 47 26 81t67 34q39 0 64.5 -20.5t25.5 -55.5q0 -12 -4 -29.5t-4 -25.5q0 -61 53 -100t143 -39t154.5 79t64.5 185q0 117 -89 179.5t-279 80.5v47q119 0 211 85t92 204q0 80 -45 130t-113 50q-84 0 -126 -37t-42 -100q0 -4 2 -21.5t2 -25.5q0 -33 -27.5 -54.5 t-60.5 -21.5q-41 0 -66.5 29.5t-25.5 77.5q0 96 95 149t249 53q141 0 238.5 -65.5t97.5 -163.5q0 -117 -113.5 -207t-265.5 -102q442 0 442 -287q0 -133 -116.5 -225t-278.5 -92q-180 0 -275.5 56t-95.5 152z" />
<glyph unicode="4" horiz-adv-x="903" d="M27 283v114q29 25 53 56l51 57l414 512l28 41l37 51h62v-700h137v-131h-137v-201q0 -37 33 -37l77 2v-47h-424v47l119 -2q33 0 33 37v201h-483zM127 414h383v477z" />
<glyph unicode="5" horiz-adv-x="901" d="M86 190q0 51 26.5 81t65.5 30q86 0 86 -72q0 -20 -8 -40.5t-8 -30.5q0 -61 50 -93t118 -32q119 0 168 80t49 233q0 137 -62.5 213t-183.5 76q-61 0 -122.5 -30t-88.5 -73q-2 -2 -4 -2h-8h-21q-8 0 -10 2l39 568h459q74 0 141 6q-55 -115 -74 -258h-53q4 29 4 61 q0 20 -15.5 39t-43.5 19h-363l-30 -351q111 86 254 86q164 0 261 -92t97 -264q0 -166 -112.5 -265t-280.5 -99q-82 0 -149.5 15t-124 64t-56.5 129z" />
<glyph unicode="6" horiz-adv-x="880" d="M86 481q0 643 424 643q117 0 178.5 -46t61.5 -132q0 -45 -26 -70.5t-67 -25.5q-84 0 -84 70q0 12 5.5 34.5t5.5 30.5q0 33 -27 58.5t-72 25.5q-104 0 -158.5 -117.5t-62.5 -308.5q63 94 185 94q166 0 258 -99t92 -280q0 -164 -98.5 -271t-251.5 -107q-104 0 -178 38.5 t-113 111.5t-55.5 156.5t-16.5 194.5zM260 358q0 -139 48 -237t141 -98q94 0 134 81.5t40 253.5q0 334 -174 334q-51 0 -87 -19.5t-55.5 -47t-30 -75.5t-13.5 -89.5t-3 -102.5z" />
<glyph unicode="7" horiz-adv-x="772" d="M47 795q41 229 41 311q23 -6 211 -6h508q-166 -174 -269.5 -447.5t-103.5 -519.5q0 -41 2 -63l4 -70h-164q-16 76 -16 150q0 373 383 817h-344q-90 0 -134 -39t-54 -133h-64z" />
<glyph unicode="8" horiz-adv-x="901" d="M76 258q0 86 68.5 168t179.5 137q-104 63 -155.5 129t-51.5 148q0 133 100 208.5t254 75.5q143 0 233.5 -62.5t90.5 -182.5q0 -74 -78 -165t-156 -106q262 -131 262 -323q0 -133 -115.5 -218t-265.5 -85q-366 0 -366 276zM213 258q0 -96 61.5 -160.5t167.5 -64.5 q88 0 144.5 50t56.5 134q0 154 -174 256l-96 59q-63 -39 -111.5 -121.5t-48.5 -152.5zM293 899q0 -63 57.5 -134t167.5 -128q143 82 144 246q0 92 -47.5 141t-133.5 49t-137 -48t-51 -126z" />
<glyph unicode="9" horiz-adv-x="880" d="M82 745q0 164 98.5 271.5t251.5 107.5q104 0 178 -38.5t113 -111.5t55.5 -157t16.5 -194q0 -643 -424 -643q-117 0 -178.5 46t-61.5 132q0 45 25.5 70.5t66.5 25.5q84 0 84 -70q0 -12 -5 -34.5t-5 -30.5q0 -33 26.5 -58.5t71.5 -25.5q104 0 158.5 117.5t62.5 308.5 q-63 -94 -184 -94q-166 0 -258 99t-92 279zM258 745q0 -334 174 -333q51 0 87 19.5t55.5 47t29.5 75.5t13.5 89t3.5 102q0 139 -48.5 237.5t-140.5 98.5q-94 0 -134 -82t-40 -254z" />
<glyph unicode=":" horiz-adv-x="512" d="M123 96.5q0 53.5 38 86t95 32.5t95 -32.5t38 -86t-38 -85t-95 -31.5t-95 31.5t-38 85zM123 706.5q0 53.5 38 86t95 32.5t95 -32.5t38 -86t-38 -85t-95 -31.5t-95 31.5t-38 85z" />
<glyph unicode=";" horiz-adv-x="512" d="M100 706.5q0 53.5 38 86t95.5 32.5t95.5 -32.5t38 -86t-38 -85t-95.5 -31.5t-95.5 31.5t-38 85zM147 -305q53 49 97.5 118.5t44.5 116.5q0 59 -74 60q-66 0 -65 88q0 43 35.5 75.5t82.5 32.5q143 0 144 -170q0 -102 -70 -193.5t-156 -150.5z" />
<glyph unicode="&#x3c;" d="M111 422v49l720 434v-98l-526 -318l-88 -40l88 -43l526 -316v-100z" />
<glyph unicode="=" d="M72 211v88h798v-88h-798zM72 618v89h798v-89h-798z" />
<glyph unicode="&#x3e;" d="M111 -10v98l524 318l88 40l-88 43l-524 316v100l720 -432v-49z" />
<glyph unicode="?" horiz-adv-x="819" d="M74 1241q0 45 104.5 88t231.5 43q178 0 270 -63.5t92 -182.5q0 -66 -58.5 -134t-128 -116.5t-128 -111t-58.5 -117.5q0 -104 97 -160l-25 -38q-63 14 -142 82.5t-79 130.5q0 57 53 128.5t115.5 128t116 121t53.5 109.5q0 84 -42 130t-118 46q-197 0 -197 -111 q0 -16 -17 -34.5t-36 -18.5q-43 0 -73.5 23.5t-30.5 56.5zM262 90q0 53 39 89t90 36q59 0 98 -30.5t39 -88.5q0 -51 -38.5 -83.5t-90.5 -32.5q-53 0 -95 29.5t-42 80.5z" />
<glyph unicode="@" horiz-adv-x="1517" d="M53 365q0 219 103.5 415.5t292 318.5t413.5 122q256 0 428 -171t172 -423q0 -154 -83 -300.5t-230 -252.5q-127 -94 -209 -94q-49 0 -49 94q0 100 49 309q-117 -221 -209 -312t-190 -91q-90 0 -139.5 66.5t-49.5 182.5q0 143 75 294t204 254.5t268 103.5q78 0 117 -80 l10 41l188 35l-47 -201q-86 -391 -86 -488q0 -35 27 -34q37 0 101.5 60t107.5 124q82 131 82 287q0 221 -156 378.5t-381 157.5q-211 0 -372.5 -116.5t-249.5 -329.5q-72 -180 -72 -361q0 -266 168 -429t452 -163q182 0 322.5 60.5t273.5 195.5l37 -45 q-141 -145 -294.5 -207.5t-356.5 -62.5q-328 0 -522.5 178.5t-194.5 483.5zM535 252q0 -160 102 -160q41 0 126 102.5t156.5 254t71.5 264.5q0 43 -25.5 74.5t-62.5 31.5q-98 0 -182 -88t-139 -237q-47 -131 -47 -242z" />
<glyph unicode="A" horiz-adv-x="1230" d="M-41 0v59l53 -4h8q41 0 68 39q31 45 62 119l428 1030h53l432 -1034q29 -74 59 -117q29 -37 72 -37h10l68 4v-59h-543v59l100 -4h9q46 0 52 39q1 8 2 17q0 35 -22 73l-100 242h-475l-96 -229q-12 -31 -19.5 -54.5t-9.5 -46t9 -34t36 -9.5l98 6v-59h-354zM315 483h435 l-220 516z" />
<glyph unicode="B" horiz-adv-x="1173" d="M102 0v59l103 -4q37 0 37 45v1024q0 14 -9.5 27.5t-25.5 13.5l-105 -4v62h568q354 0 354 -293q0 -109 -77 -183.5t-206 -97.5q147 0 249 -91t102 -226q0 -332 -453 -332h-537zM432 84q0 -27 29 -27h143q131 0 210 74t79 201q0 280 -248 280h-2h-211v-528zM432 670h156 q241 0 241 256q0 113 -66.5 176t-187.5 63h-118h-2q-20 0 -23 -24v-471z" />
<glyph unicode="C" horiz-adv-x="1243" d="M92 604q0 301 163 470t452 169q88 0 140 -11t189 -65q37 -12 97 -12q-8 -76 -9 -170q2 -6 2 -27v-28q0 -37 7 -43h-50q-29 127 -139 216t-248 89q-182 0 -288.5 -161t-106.5 -427q0 -254 111.5 -411.5t294.5 -157.5q141 0 249.5 87t137.5 220h57l-4 -43l-4 -49 q-4 -66 -4 -82q0 -59 6 -96h-12q-49 0 -142 -31l-76 -25l-75 -20q-88 -16 -144 -16q-281 0 -442.5 166.5t-161.5 457.5z" />
<glyph unicode="D" horiz-adv-x="1275" d="M102 0v59l88 -4q31 0 31 45v1022q0 43 -39 43l-80 -4v62h461q328 0 484.5 -142.5t156.5 -468.5q0 -612 -616 -612h-486zM412 84q0 -27 24 -27h92q254 0 360.5 126t106.5 427t-106.5 428t-360.5 127h-92h-2q-22 0 -22 -26v-1055z" />
<glyph unicode="E" horiz-adv-x="1153" d="M102 0v61l82 -6q37 0 37 45v1022q0 18 -11 31.5t-30 11.5l-78 -4v62h822h43q29 0 34 2v-318h-55q0 137 -68.5 197.5t-222.5 60.5h-219q-25 0 -24 -28v-471h192q70 0 113 55t43 151h55v-473h-55q0 90 -46 149.5t-110 59.5h-192v-524q0 -27 24 -27h287q139 0 212 80t73 230 h55v-373q-47 6 -180 6h-781z" />
<glyph unicode="F" horiz-adv-x="1083" d="M102 0v61l82 -6q37 0 37 45v1022q0 43 -35 43h-4l-80 -4v62h848h41q25 0 31 2v-318h-55q0 135 -70 196.5t-221 61.5h-240q-25 0 -24 -26v-494h153q74 0 118 56.5t44 152.5h55v-471h-55q0 92 -45 148.5t-117 56.5h-153v-490q0 -43 39 -43l106 6v-61h-455z" />
<glyph unicode="G" horiz-adv-x="1323" d="M92 604q0 315 159 477t456 162q162 0 329 -76q29 -12 97 -12q-8 -41 -9 -141v-43q0 -18 2 -27v-24l7 -33h-82q2 10 2 31q0 63 -21 106q-72 168 -336 168q-178 0 -286.5 -149.5t-108.5 -438.5q0 -569 406 -569q92 0 149 19.5t113 74.5v328q0 45 -39 45l-121 -4v59h473v-59 l-84 4q-39 0 -39 -43v-387q-10 2 -29 2l-40 -4q-31 -6 -64 -17l-108 -39q-99 -34 -215 -34h-7q-287 0 -445.5 157.5t-158.5 466.5z" />
<glyph unicode="H" horiz-adv-x="1425" d="M102 0v59l80 -4q39 0 39 45v1022q0 20 -9 32.5t-30 10.5l-80 -4v62h451v-62l-100 4q-18 2 -29.5 -11t-11.5 -32v-463h602v463q0 20 -9.5 32.5t-29.5 10.5l-101 -4v62h449v-62l-80 4q-18 2 -28.5 -10t-10.5 -33v-1022q0 -45 39 -45l80 4v-59h-449v59l101 -4q39 0 39 45 v502h-602v-502q0 -45 41 -45l100 4v-59h-451z" />
<glyph unicode="I" horiz-adv-x="634" d="M102 0v59l80 -4q39 0 39 45v1022q0 18 -10 31.5t-29 11.5l-80 -4v62h430v-62l-79 4q-18 2 -29.5 -11t-11.5 -32v-1022q0 -45 41 -45l79 4v-59h-430z" />
<glyph unicode="J" horiz-adv-x="923" d="M49 -2v354h74q0 -72 16.5 -138.5t68.5 -123.5t130 -57q98 0 141 75.5t43 258.5v755q0 18 -11 31.5t-28 11.5l-141 -4v62h489v-62l-77 4q-18 2 -29.5 -10t-11.5 -31v-757q0 -387 -342 -387q-63 0 -145.5 15t-104.5 15q-60 0 -72 -12z" />
<glyph unicode="K" horiz-adv-x="1263" d="M102 0v59l80 -4q39 0 39 45v1022q0 20 -10 32.5t-29 10.5l-80 -4v62h451v-62l-100 4q-41 0 -41 -45v-551l440 523l22 30q12 15 13 25q0 18 -21 18l-86 -4v62h365v-62l-70 4h-4q-59 0 -115 -59l-315 -354l492 -668q23 -29 49 -29h6l63 6v-61h-485v61l104 -6 q29 -2 38.5 10.5t-7.5 40.5l-375 508l-114 -135v-379q0 -45 41 -45l100 4v-59h-451z" />
<glyph unicode="L" horiz-adv-x="1052" d="M102 0v61l88 -6q31 0 31 45v1022q0 18 -11 31.5t-28 11.5l-80 -4v62h451v-62l-100 4q-18 2 -29.5 -11t-11.5 -32v-1038q0 -27 24 -27h232q141 0 213.5 75t72.5 218h54v-356q-37 6 -254 6h-652z" />
<glyph unicode="M" horiz-adv-x="1757" d="M92 0v59l80 -4q41 0 41 45v1022v31q0 14 -20 12l-87 -4v62h316l477 -994l447 994h299v-62l-70 4q-18 2 -29.5 -10t-11.5 -31v-1024q0 -45 41 -45l80 4v-59h-451v59l101 -4q41 0 41 45v965l-488 -1085h-49l-526 1097v-977q0 -45 39 -45l100 4v-59h-330z" />
<glyph unicode="N" horiz-adv-x="1355" d="M92 0v59l80 -4q41 0 41 45v1022q0 18 -11.5 31.5t-29.5 11.5l-80 -4v62h318l665 -908v809q0 41 -35 41h-6l-100 -4v62h330v-62l-80 4h-4q-35 0 -35 -43v-1134h-62l-800 1087v-975q0 -45 39 -45l100 4v-59h-330z" />
<glyph unicode="O" horiz-adv-x="1372" d="M92 612q0 293 135 443q100 113 212 150.5t247 37.5q289 0 459 -188q135 -150 135 -443t-135 -442q-172 -190 -459 -190q-133 0 -245.5 38.5t-213.5 151.5q-135 149 -135 442zM301 612q0 -307 93 -442t292 -135t292 135t93 442q0 305 -93 440.5t-292 135.5t-292 -135.5 t-93 -440.5z" />
<glyph unicode="P" horiz-adv-x="1071" d="M102 0v59l80 -4q39 0 39 45v1020q0 25 -10 36t-37 9l-72 -4v62h482q213 0 314 -81t101 -249q0 -162 -100 -258t-272 -96h-215v-439q0 -45 41 -45l100 4v-59h-451zM412 596h172q94 0 156.5 84t62.5 213q0 123 -68.5 197.5t-183.5 74.5h-115q-8 0 -16 -7t-8 -17v-545z" />
<glyph unicode="Q" horiz-adv-x="1372" d="M92 612q0 293 135 443q100 113 212 150.5t247 37.5q289 0 459 -188q135 -150 135 -443t-135 -442q-141 -160 -357 -184q0 -141 95.5 -233.5t251.5 -92.5l-27 -61q-229 0 -377.5 108.5t-148.5 278.5q-213 25 -355 184q-135 149 -135 442zM301 612q0 -307 93 -442t292 -135 t292 135t93 442q0 305 -93 440.5t-292 135.5t-292 -135.5t-93 -440.5z" />
<glyph unicode="R" horiz-adv-x="1189" d="M102 0v59l80 -4q39 0 39 45v1022q0 43 -41 43h-4l-74 -4v62h461q227 0 329.5 -77t102.5 -249q0 -104 -68.5 -181t-181.5 -108q102 0 190.5 -98t88.5 -260q0 -61 15.5 -125t43.5 -68q12 -4 34 -4t34 8v-61h-279q-25 51 -28 135q-4 53 -4 78v68q0 154 -99.5 229.5 t-242.5 75.5h-86v-486q0 -45 41 -45l100 4v-59h-451zM412 641h190q94 0 147.5 67.5t53.5 188.5q0 141 -58.5 204.5t-181.5 63.5h-127q-24 0 -24 -20v-504z" />
<glyph unicode="S" horiz-adv-x="1011" d="M98 416h52q47 -379 376 -379q102 0 163 67.5t63 178.5q0 158 -203 237l-209 84q-225 90 -225 299q0 143 99 241.5t280 98.5q53 0 104 -10l86 -25l74 -24q34 -12 55 -13q37 0 59 9q-6 -49 -6 -154q0 -100 13 -137h-54q0 133 -87 216t-218 83q-106 0 -171.5 -58.5 t-65.5 -162.5q0 -139 176 -209l188 -76q156 -63 222.5 -140t66.5 -198q0 -160 -113.5 -262t-273.5 -102q-121 0 -211 26q-109 31 -162 31q-59 0 -70 -10q8 43 9 170q-1 166 -17 219z" />
<glyph unicode="T" horiz-adv-x="1083" d="M31 907v320q29 -4 82 -4h159h541h158q66 0 82 4v-320h-54q0 133 -58 195.5t-193 62.5h-86q-20 0 -25 -22v-1043q0 -45 41 -45l108 4v-59h-489v59l111 -4q39 0 38 51v1035q0 25 -24 24h-84q-135 0 -194.5 -62.5t-59.5 -195.5h-53z" />
<glyph unicode="U" horiz-adv-x="1333" d="M72 1161v62h448v-62l-100 4q-18 2 -29.5 -10t-11.5 -31v-716q0 -172 95 -268.5t267 -96.5q150 0 249.5 103.5t99.5 259.5v716q0 20 -10.5 32.5t-26.5 10.5l-101 -4v62h330v-62l-80 4q-18 2 -29.5 -10t-11.5 -31v-737q0 -176 -129 -291.5t-327 -115.5q-250 0 -383.5 109.5 t-133.5 318.5v714q0 18 -11 31.5t-27 11.5z" />
<glyph unicode="V" horiz-adv-x="1196" d="M-10 1161v62h440v-62l-108 4q-14 0 -19.5 -16t0.5 -33l371 -852l356 830l8 24q14 47 -18 47l-105 -4v62h322v-62l-74 4q-16 2 -23 -8t-20 -39l-487 -1126h-53l-486 1126q-22 47 -47 47z" />
<glyph unicode="W" horiz-adv-x="1810" d="M-10 1161v62h442v-62l-108 4q-27 2 -27 -22q0 -4 6 -23l305 -803l258 799q4 16 4 21q0 29 -39 28h-8l-75 -4v62h426v-62l-87 4q-16 4 -21 -14t1 -31l336 -831l264 835q6 16 0 29.5t-22 11.5l-107 -4v62h313v-62l-61 4h-3q-34 0 -48 -43l-371 -1142h-33l-422 1064 l-348 -1064h-39l-432 1140q-14 45 -43 45h-4z" />
<glyph unicode="X" horiz-adv-x="1159" d="M61 0v61l68 -4h6q43 0 70 45l315 504l-309 520q-20 39 -66 39l-65 -4v62h467v-62l-86 4q-25 2 -33 -13t4 -30l223 -383l244 385q12 16 9 29.5t-25 11.5l-88 -4v62h311v-62l-57 4h-7q-35 0 -63 -41l-283 -452l346 -582q19 -35 58 -35h4l80 6v-61h-482v61l101 -6 q23 -2 25.5 14.5t-11.5 32.5l-258 437l-276 -443q-10 -18 -5 -30.5t17 -10.5l92 6v-61h-326z" />
<glyph unicode="Y" horiz-adv-x="1038" d="M-10 1161v62h452v-62l-108 4q-20 2 -23.5 -15t8.5 -34l281 -467l268 475q20 41 -14 41l-106 -4v62h311v-62l-60 4h-2q-33 0 -57 -43l-299 -532v-492q0 -43 41 -43l98 4v-59h-469v59l101 -4q39 0 39 45v439l-355 587q-20 39 -49 39h-2z" />
<glyph unicode="Z" horiz-adv-x="1048" d="M70 0v55l655 1110h-309q-147 0 -218 -62.5t-71 -195.5h-55v322h24q10 0 60 -4h73q47 0 66 -2h655v-49l-661 -1119h356q141 0 224 77t83 210h56l-17 -350q-24 8 -231 8h-690z" />
<glyph unicode="[" horiz-adv-x="524" d="M94 -301v1683h363v-55h-213v-1573h213v-55h-363z" />
<glyph unicode="\" horiz-adv-x="507" d="M-16 1282l79 18l449 -1288l-82 -22z" />
<glyph unicode="]" horiz-adv-x="524" d="M70 -246h215v1573h-215v55h360v-1683h-360v55z" />
<glyph unicode="^" d="M37 657l412 689h47l409 -689h-96l-297 502l-41 86l-39 -86l-301 -502h-94z" />
<glyph unicode="_" horiz-adv-x="1009" d="M0 -293h1010v-82h-1010v82z" />
<glyph unicode="`" horiz-adv-x="1058" d="M375 1284q0 12 41 32.5t76 20.5q14 0 26 -6t18.5 -12t28.5 -33l195 -213q37 -41 37 -47q0 -16 -27 -16q-23 0 -41 18l-334 229q-20 17 -20 27z" />
<glyph unicode="a" horiz-adv-x="921" d="M55 215q0 162 130 237.5t417 75.5v119q0 92 -44 135t-136 43q-154 0 -154 -90q0 -16 10.5 -36.5t10.5 -41.5q0 -29 -28 -46t-71 -17q-90 0 -90 100q0 84 81 135.5t241 51.5q180 0 268 -70t88 -219v-504q0 -39 27 -39l76 4v-53h-291q4 27 8 76l4 80q-84 -166 -276 -166 q-271 0 -271 225zM242 229q0 -78 36.5 -122t102.5 -44q94 0 157.5 82t63.5 209v119q-197 0 -278.5 -56.5t-81.5 -187.5z" />
<glyph unicode="b" horiz-adv-x="1015" d="M43 1444v51h279v-795q76 180 268 181q354 0 354 -453q0 -448 -387 -448h-2q-72 0 -123 20t-73.5 43t-53.5 63q-9 18 -37 19q-57 0 -57 -135h-68v1417q1 41 -26 41zM326 377q0 -342 229 -342q117 0 160 84t43 309q0 233 -38 315t-152.5 82t-178 -97t-63.5 -265v-86z" />
<glyph unicode="c" horiz-adv-x="870" d="M74 428q0 203 110.5 328t290.5 125q131 0 224.5 -60.5t93.5 -150.5q0 -43 -26 -72t-62 -29q-82 0 -82 58q0 20 9 45.5t9 50.5q0 49 -48 75.5t-118 26.5q-111 0 -161 -94t-50 -309q0 -387 238 -387q92 0 173 63.5t105 155.5l51 -35q-74 -239 -340 -239h-2 q-197 0 -306 116.5t-109 331.5z" />
<glyph unicode="d" horiz-adv-x="1015" d="M72 428q0 453 387 453q94 0 154.5 -47.5t80.5 -120.5v694q0 41 -26 41l-95 -4v51h299v-1407q0 -39 27 -39l76 4v-53h-295q4 16 4 33v45q0 16 2 38l2 21q-51 -157 -225 -157h-2q-209 0 -299 109.5t-90 338.5zM260 428q0 -221 42 -307t159 -86q125 0 177 82t52 260v86 q0 362 -231 362q-111 0 -155 -102t-44 -295z" />
<glyph unicode="e" horiz-adv-x="919" d="M72 428q0 223 104.5 338t306.5 115q162 0 261.5 -103.5t103.5 -283.5v-60h-590q0 -385 258 -387q102 0 173 51.5t104 126.5l47 -35q-41 -98 -138.5 -154t-214.5 -56h-2q-413 0 -413 448zM260 485h373q41 0 41 68q0 139 -44 205.5t-147 66.5q-115 0 -169 -94t-54 -246z " />
<glyph unicode="f" horiz-adv-x="606" d="M72 0v53l96 -4q8 0 9 3t-1 14.5t-2 21.5v721h-80v51h80v135q0 233 43 334q76 178 287 178h28q90 0 156 -34q72 -41 72 -127q0 -68 -82 -68q-27 0 -50.5 14.5t-23.5 38.5q0 23 7 42.5t7 25.5q0 57 -102 57q-76 0 -128 -53t-52 -180q0 -55 6 -157.5t6 -145.5v-60h219v-51 h-217v-721q0 -39 27 -39l135 4v-53h-440z" />
<glyph unicode="g" d="M66 -229q0 152 184 239q-53 14 -80 25.5t-52.5 45.5t-25.5 87q0 47 76 96t84 62q-61 29 -98 96t-37 151q0 137 97 222.5t251 85.5q80 0 156 -25q51 70 125.5 124t115.5 54q51 0 72.5 -27.5t21.5 -62.5q0 -27 -18 -51.5t-47 -24.5q-37 0 -56.5 23.5t-35.5 23.5 q-20 0 -64.5 -22.5t-70.5 -54.5q151 -61 151 -262q0 -138 -96 -223t-254 -85q-84 0 -154 29q-80 -41 -80 -88q0 -76 119 -76h273q152 0 228.5 -65.5t76.5 -219.5q0 -160 -133 -255t-355 -95q-180 0 -277 70t-97 203zM166 -225q0 -100 68.5 -162t203.5 -62q170 0 262.5 78 t92.5 205q0 166 -201 166h-182q-86 0 -165 -68.5t-79 -156.5zM299 573q0 -147 35 -202.5t131 -55.5t132 58.5t36 199.5q0 137 -37 194.5t-131 57.5t-130 -54.5t-36 -197.5z" />
<glyph unicode="h" horiz-adv-x="1075" d="M72 0v53l75 -4q27 6 27 39v1317q0 43 -27 43l-75 -4v51h278v-817q43 94 123 148.5t184 54.5q145 0 210 -69t65 -222v-502q0 -39 26 -39l76 4v-53h-399v53l94 -4q27 6 27 39v465q0 145 -24.5 203.5t-113.5 58.5q-123 0 -195.5 -106.5t-72.5 -282.5v-338q0 -39 27 -39l94 4 v-53h-399z" />
<glyph unicode="i" horiz-adv-x="522" d="M72 0v53l75 -4q27 0 27 39v682q0 35 -24 41l-76 -4v53h276v-772q0 -39 27 -39l74 4v-53h-379zM137 1296q0 43 31 70t80 27t80.5 -27t31.5 -70q0 -47 -30.5 -72.5t-81.5 -25.5q-49 0 -80 25.5t-31 72.5z" />
<glyph unicode="j" horiz-adv-x="514" d="M-119 -434q0 88 51 88q20 0 33 -14l27 -33q37 -49 78 -49q108 0 108 167q0 5 -1 33q-1 27 -2 63t-1 58v891q0 41 -27 41l-84 -4v53h287v-868q0 -489 -293 -490q-104 0 -140 12.5t-36 51.5zM141 1296q0 45 31 71t80 26t81 -27t32 -70q0 -47 -32 -72.5t-81 -25.5 q-51 0 -81 25.5t-30 72.5z" />
<glyph unicode="k" horiz-adv-x="1046" d="M72 0v53l75 -4q27 6 27 39v1317q0 43 -24 43l-76 -4v51h276v-1010l334 287q8 8 11 17.5t-1 16.5t-16 7l-88 -4v51h332v-51l-74 4q-31 0 -64 -29l-239 -204l358 -494q27 -37 55 -37l74 4v-53h-440v53l92 -4q18 -2 22.5 8.5t-4.5 20.5l-284 393l-68 -57v-326q0 -39 27 -39 l94 4v-53h-399z" />
<glyph unicode="l" horiz-adv-x="522" d="M72 0v53l75 -4q27 6 27 39v1319q0 34 -24 43l-76 -4v51h276v-1409q0 -39 27 -39l74 4v-53h-379z" />
<glyph unicode="m" horiz-adv-x="1640" d="M72 0v53l75 -4q27 6 27 39v682q0 41 -27 41l-75 -4v53h290q-10 -31 -10 -69l-2 -119q31 92 109 150.5t190 58.5q252 0 266 -234q35 113 117 173.5t191 60.5q145 0 209.5 -69t64.5 -222v-502q0 -39 27 -39l75 4v-53h-399v53l94 -4q27 6 27 39v465q0 145 -24.5 203.5 t-112.5 58.5q-115 0 -187.5 -107.5t-72.5 -281.5v-338q0 -39 26 -39l97 4v-53h-420v53l94 -4q27 6 27 39v469q0 156 -28 206t-118 50q-113 0 -182.5 -107.5t-69.5 -275.5v-342q0 -39 27 -39l94 4v-53h-399z" />
<glyph unicode="n" horiz-adv-x="1075" d="M72 0v53l75 -4q27 6 27 39v682q0 35 -27 41l-75 -4v53h288q-10 -31 -10 -72v-110q43 94 123 148.5t184 54.5q145 0 210 -69t65 -222v-502q0 -39 26 -39l76 4v-53h-399v53l94 -4q27 6 27 39v465q0 145 -24.5 203.5t-113.5 58.5q-123 0 -195.5 -106.5t-72.5 -282.5v-338 q0 -39 27 -39l94 4v-53h-399z" />
<glyph unicode="o" horiz-adv-x="966" d="M72 432q0 209 104.5 329t307 120t307 -120t104.5 -329q0 -213 -104.5 -332.5t-307 -119.5t-307 119.5t-104.5 332.5zM258 428q0 -207 52 -300t173 -93t173.5 93t52.5 300q0 209 -52.5 303t-173.5 94t-173 -94t-52 -303z" />
<glyph unicode="p" horiz-adv-x="1011" d="M41 807v53h285q-8 -51 -9 -104v-60q63 184 271 185q352 0 352 -453q0 -225 -95 -336.5t-294 -111.5q-174 0 -234 108v-487q0 -41 27 -41l127 4v-53h-422v53l66 -4q27 2 26 41v1169q1 41 -26 41zM322 377q0 -342 229 -342q117 0 160 84t43 309q0 227 -39 312t-150 85 q-115 0 -179 -99t-64 -263v-86z" />
<glyph unicode="q" horiz-adv-x="1003" d="M72 428q0 453 387 453q86 0 140 -26t99 -87q23 -29 41 -29q63 0 64 121h67v-1259q0 -20 6.5 -30.5t20.5 -8.5l66 2v-53h-410v53l115 -2q27 2 26 39v526q-23 -61 -85 -104t-154 -43q-195 0 -289 98t-94 350zM260 428q0 -166 26.5 -254t66.5 -113.5t112 -25.5 q59 0 105 35.5t71 90t37 111t12 107.5v84q0 63 -9 120.5t-31.5 115t-67.5 92t-109 34.5q-113 0 -163 -91t-50 -306z" />
<glyph unicode="r" horiz-adv-x="784" d="M72 807v53h288q-12 -33 -12 -94v-98q86 213 254 213q74 0 114 -33t40 -90q0 -94 -80 -94q-84 0 -84 53q0 8 4 23.5t4 27.5q0 35 -57 35q-86 0 -140.5 -126t-54.5 -251v-338q0 -39 27 -39l125 4v-53h-420v53l65 -4q27 0 27 39v682q0 41 -27 41z" />
<glyph unicode="s" horiz-adv-x="841" d="M90 20l10 271l54 4q0 -113 87 -186.5t210 -73.5q82 0 127 42t45 113q0 57 -33 94.5t-111 59.5l-196 55q-82 25 -129.5 83.5t-47.5 144.5q0 113 84 183.5t230 70.5q55 0 141 -23l57 -14q23 -8 48 -8q31 0 57 16l-12 -234h-45q0 82 -64.5 144.5t-175.5 62.5q-78 0 -122 -41 t-44 -104q0 -100 127 -135l197 -56q104 -29 147 -85t43 -146q0 -133 -94 -205.5t-246 -72.5q-68 0 -160 26l-69 19q-31 8 -55 8q-42 -1 -60 -13z" />
<glyph unicode="t" horiz-adv-x="641" d="M51 809v51q119 0 165 38t77 171h57v-209h225v-51h-225v-629q0 -78 18.5 -105.5t65.5 -27.5q31 0 63.5 23.5t43.5 58.5l43 -27q-41 -114 -214 -114h-3q-104 0 -148.5 49t-44.5 160v612h-123z" />
<glyph unicode="u" horiz-adv-x="1073" d="M41 807v53h276v-557q0 -139 25 -197.5t100 -58.5q127 0 204 103.5t77 281.5v336q0 43 -25 43l-96 -4v53h299v-772q0 -39 27 -39l73 4v-53h-290q12 29 12 178q-84 -198 -322 -198h-2q-137 0 -197.5 75.5t-60.5 247.5v467q1 41 -26 41z" />
<glyph unicode="v" horiz-adv-x="909" d="M-27 807v53h416v-53l-90 4q-14 0 -25.5 -12.5t-5.5 -28.5l224 -541l217 549q6 10 3 22.5t-20 10.5l-90 -4v53h289v-53l-68 4q-37 0 -47 -31l-323 -790h-56l-315 794q-12 27 -41 27z" />
<glyph unicode="w" horiz-adv-x="1484" d="M-27 807v53h437v-53l-91 4q-23 2 -29.5 -10.5t-0.5 -30.5l192 -545l281 645h43l270 -630l197 536q6 12 2 24.5t-25 10.5l-108 -4v53h325v-53l-84 4q-31 0 -43 -35l-305 -796h-45l-272 636l-285 -636h-41l-289 804q-11 27 -34 27z" />
<glyph unicode="x" horiz-adv-x="995" d="M10 0v53l88 -4q23 0 43 27l258 348l-258 360q-14 27 -39 27l-79 -4v53h440v-53l-94 4q-14 0 -20.5 -7t1.5 -20l176 -249l183 241q8 10 6 22.5t-19 12.5l-88 -4v53h305v-53l-86 4q-27 0 -51 -31l-215 -293l289 -411q18 -27 39 -27l90 4v-53h-453v53l101 -6q12 -2 16 9.5 t-2 19.5l-207 299l-223 -297q-4 -4 -4 -8q0 -20 26 -21l89 4v-53h-312z" />
<glyph unicode="y" horiz-adv-x="993" d="M-27 807v53h449v-53l-92 4q-14 0 -22.5 -11.5t-2.5 -23.5l250 -553l231 557q12 31 -20 31l-96 -4v53h317v-53l-84 4h-4q-33 0 -51 -39l-432 -1042q-49 -121 -104.5 -170t-137.5 -49q-55 0 -93 26.5t-42 73.5q0 51 23.5 77.5t56.5 26.5q35 0 55.5 -21.5t35.5 -43t38 -21.5 q57 0 94 95l121 278l-357 782q-12 27 -32 27z" />
<glyph unicode="z" horiz-adv-x="903" d="M70 -4v41l510 772h-201q-207 0 -244 -236h-43l19 291l28 -1q29 -1 75 -2t93 -1h105h383v-39l-502 -770h215q264 0 264 234h43v-285h-426h-106q-61 0 -136 -2t-77 -2z" />
<glyph unicode="{" horiz-adv-x="573" d="M61 526v41q82 12 115 49t33 117v459q0 111 42 150.5t161 39.5h69v-61h-55q-80 0 -80 -115v-473q0 -94 -40 -130t-156 -56q119 -25 157.5 -59.5t38.5 -127.5v-483q0 -115 80 -115h55v-61h-69q-121 0 -162 39t-41 151v469q0 90 -27 118t-121 48z" />
<glyph unicode="|" horiz-adv-x="475" d="M201 -489v1984h73v-1984h-73z" />
<glyph unicode="}" horiz-adv-x="593" d="M92 -238h76q80 0 80 115v483q0 92 39 127t157 60q-117 20 -156.5 56t-39.5 130v473q0 115 -80 115h-76v61h90q119 0 161 -39.5t42 -150.5v-459q0 -80 33 -116.5t114 -49.5v-41q-94 -20 -120.5 -47.5t-26.5 -118.5v-469q0 -113 -41 -151.5t-162 -38.5h-90v61z" />
<glyph unicode="~" d="M45 522q88 150 223 150q68 0 202 -66.5t196 -66.5q51 0 90 26.5t86 93.5l57 -59q-96 -160 -233 -160q-66 0 -201 66.5t-197 66.5q-53 0 -87 -21t-81 -89z" />
<glyph unicode="&#xa2;" horiz-adv-x="806" d="M104 594q0 164 87.5 262t230.5 100v369h76v-375q82 -18 132 -61t50 -101q0 -37 -20.5 -59t-51.5 -22q-70 0 -69 47q0 16 10 35.5t10 39.5q0 39 -39 60.5t-94 21.5q-90 0 -128 -74.5t-38 -246.5q0 -309 186 -309q76 0 138.5 49t85.5 125l41 -27q-47 -160 -213 -188v-435 h-76v431q-150 4 -234 98t-84 260z" />
<glyph unicode="&#xa3;" horiz-adv-x="1038" d="M43 -6q88 49 141.5 138t53.5 187v308h-164v47h164v166q0 211 85 307t275 96q109 0 182.5 -51t73.5 -127q0 -33 -25.5 -57.5t-58.5 -24.5t-58.5 20.5t-25.5 49.5q0 12 8 34l8 33q0 76 -116 76q-82 0 -134.5 -54.5t-52.5 -144.5l13 -92q8 -68 10 -94l8 -82q2 -23 2 -55h246 v-47h-244v-164q0 -82 -54 -181.5t-114 -131.5h365q160 0 214 39.5t54 154.5h51l-20 -350q-18 0 -70.5 3t-89.5 3h-524q-41 0 -121 -3t-82 -3z" />
<glyph unicode="&#xa5;" horiz-adv-x="1038" d="M-10 1161v62h452v-62l-108 4q-20 2 -23.5 -15t8.5 -34l281 -467l268 475q20 41 -14 41l-106 -4v62h311v-62l-60 4q-33 2 -59 -43l-238 -424h209v-59h-243l-27 -49v-117h270v-59h-270v-316q0 -43 41 -43l98 4v-59h-469v59l101 -4q39 0 39 45v314h-271v59h271v66l-62 100 h-209v59h174l-258 428q-22 41 -51 39z" />
<glyph unicode="&#xa9;" horiz-adv-x="1378" d="M115 561q0 242 171 414t412.5 172t413.5 -172t172 -414t-172 -413t-413.5 -171t-412.5 171t-171 413zM180 561q0 -217 150.5 -369.5t365.5 -152.5q217 0 367.5 152.5t150.5 369.5t-151.5 370.5t-366.5 153.5t-365.5 -153.5t-150.5 -370.5zM371 569q4 166 92 257.5 t246 91.5q96 0 157 -29q63 -27 90 -23q-6 -43 -6 -94v-22q0 -13 1 -23l1 -10h-24q-16 76 -76.5 124t-140.5 48q-104 0 -164 -91t-60 -241q0 -137 60.5 -225t161.5 -88q80 0 141 47t78 121h33q-12 -72 -13 -113q0 -10 4 -39h-6q-33 0 -114.5 -22.5t-120.5 -22.5 q-164 0 -252 93t-88 261z" />
<glyph unicode="&#xad;" horiz-adv-x="509" d="M45 387v113h422v-113h-422z" />
<glyph unicode="&#xae;" horiz-adv-x="1378" d="M115 561q0 242 171 414t412.5 172t413.5 -172t172 -414t-172 -413t-413.5 -171t-412.5 171t-171 413zM180 561q0 -217 150.5 -369.5t365.5 -152.5q217 0 367.5 152.5t150.5 369.5t-151.5 370.5t-366.5 153.5t-365.5 -153.5t-150.5 -370.5zM418 242v30h17h15h13q8 0 11 1 t8 3.5t7.5 4.5t5.5 6t3 9t1 12t1 16v524q0 27 -16.5 38t-65.5 11v37h325q106 0 164 -44t58 -130q0 -70 -50.5 -121t-134.5 -61q49 -6 80 -54l70 -131q18 -37 30.5 -58.5t19.5 -35.5t17.5 -19.5t12.5 -7.5t16 -1t18 1v-30h-96q-43 0 -60.5 11t-39.5 62l-43 95 q-45 100 -71.5 123.5t-119.5 23.5v-254l11 -20l20 -9h49v-32h-276zM614 596h54q184 0 184 147q0 150 -158 150q-51 0 -65.5 -8t-14.5 -47v-242z" />
<glyph unicode="&#xb4;" horiz-adv-x="714" d="M221 1047q0 8 10 18l218 240q23 27 36 38t19 13t20 2q16 -4 43 -10q48 -10 61 -16.5t13 -22.5q0 -15 -12 -25l-361 -248q-6 -6 -20 -6q-27 1 -27 17z" />
<glyph unicode="&#x2000;" horiz-adv-x="753" />
<glyph unicode="&#x2001;" horiz-adv-x="1507" />
<glyph unicode="&#x2002;" horiz-adv-x="753" />
<glyph unicode="&#x2003;" horiz-adv-x="1507" />
<glyph unicode="&#x2004;" horiz-adv-x="502" />
<glyph unicode="&#x2005;" horiz-adv-x="376" />
<glyph unicode="&#x2006;" horiz-adv-x="251" />
<glyph unicode="&#x2007;" horiz-adv-x="251" />
<glyph unicode="&#x2008;" horiz-adv-x="188" />
<glyph unicode="&#x2009;" horiz-adv-x="301" />
<glyph unicode="&#x200a;" horiz-adv-x="83" />
<glyph unicode="&#x2010;" horiz-adv-x="509" d="M45 387v113h422v-113h-422z" />
<glyph unicode="&#x2011;" horiz-adv-x="509" d="M45 387v113h422v-113h-422z" />
<glyph unicode="&#x2012;" horiz-adv-x="509" d="M45 387v113h422v-113h-422z" />
<glyph unicode="&#x2013;" horiz-adv-x="976" d="M37 391v80h903v-80h-903z" />
<glyph unicode="&#x2014;" horiz-adv-x="1626" d="M0 391v80h1626v-80h-1626z" />
<glyph unicode="&#x2018;" horiz-adv-x="450" d="M94 977q0 102 69.5 193.5t155.5 150.5l39 -23q-53 -49 -97 -118.5t-44 -116.5q0 -35 11.5 -47t33.5 -12h29q66 0 65 -89q0 -43 -35.5 -75.5t-82.5 -32.5q-144 0 -144 170z" />
<glyph unicode="&#x2019;" horiz-adv-x="450" d="M131 799q53 49 97 118.5t44 116.5q0 59 -73 60q-66 0 -66 88q0 43 36 75.5t83 32.5q143 0 143 -170q0 -102 -69.5 -193.5t-155.5 -150.5z" />
<glyph unicode="&#x201c;" horiz-adv-x="790" d="M94 977q0 102 69.5 193.5t155.5 150.5l39 -23q-53 -49 -97 -118.5t-44 -116.5q0 -35 11.5 -47t33.5 -12h29q66 0 65 -89q0 -43 -35.5 -75.5t-82.5 -32.5q-144 0 -144 170zM434 977q0 102 69.5 193.5t155.5 150.5l39 -23q-53 -49 -97 -118.5t-44 -116.5q0 -35 11.5 -47 t33.5 -12h29q66 0 65 -89q0 -43 -35.5 -75.5t-82.5 -32.5q-144 0 -144 170z" />
<glyph unicode="&#x201d;" horiz-adv-x="790" d="M123 799q53 49 97 118.5t44 116.5q0 59 -74 60q-66 0 -65 88q0 43 36 75.5t83 32.5q143 0 143 -170q0 -102 -69.5 -193.5t-155.5 -150.5zM463 799q53 49 97 118.5t44 116.5q0 59 -74 60q-66 0 -65 88q0 43 36 75.5t83 32.5q143 0 143 -170q0 -102 -69.5 -193.5 t-155.5 -150.5z" />
<glyph unicode="&#x2022;" horiz-adv-x="960" d="M215 505.5q0 104.5 76 171t188.5 66.5t187 -66.5t74.5 -171t-75.5 -171t-186.5 -66.5q-117 0 -190.5 66.5t-73.5 171z" />
<glyph unicode="&#x2026;" horiz-adv-x="1411" d="M123 96.5q0 53.5 38 86t95 32.5t95 -32.5t38 -86t-38 -85t-95 -31.5t-95 31.5t-38 85zM573 96.5q0 53.5 38 86t95.5 32.5t95.5 -32.5t38 -86t-38 -85t-95.5 -31.5t-95.5 31.5t-38 85zM1022 96.5q0 53.5 38 86t95 32.5t95 -32.5t38 -86t-38 -85t-95 -31.5t-95 31.5t-38 85 z" />
<glyph unicode="&#x202f;" horiz-adv-x="301" />
<glyph unicode="&#x205f;" horiz-adv-x="376" />
<glyph unicode="&#x20ac;" horiz-adv-x="954" d="M4 444l21 84h98q-2 10 -2 29v47v47q0 16 2 27h-119l21 84h104q31 231 154 356t315 125q68 0 110 -12t146 -64q35 -12 76 -12q-6 -80 -6 -170q0 -16 2 -27v-28q0 -10 1 -20.5t2 -16.5l1 -6h-37q-25 129 -111 217t-192 88q-117 0 -196 -113.5t-101 -316.5h491l-20 -84h-479 q-2 -10 -2 -27v-47v-26q0 -18 2 -25q0 -16 2 -25h497l-20 -84h-471q27 -195 107.5 -302t197.5 -107q113 0 197 87t104 220h45q-6 -74 -6 -92l-4 -47v-35q0 -57 6 -96h-10q-33 0 -111 -31l-57 -25q-27 -12 -60 -20q-76 -16 -112 -16q-184 0 -306 122.5t-153 341.5h-127z" />
<glyph unicode="&#x2122;" horiz-adv-x="1552" d="M78 1006v147h530v-147h-41q0 68 -29.5 88t-111.5 20h-31v-498q0 -49 90 -49v-30h-286v30q90 0 90 39v508l-96 -2q-55 -4 -66 -39l-10 -67h-39zM688 537v30q88 0 88 41v490q0 25 -63 24v31h184l190 -455l185 455h196v-31h-47q-18 0 -24 -30v-467q0 -35 18.5 -46.5 t59.5 -11.5v-30h-256v30q43 0 60 11.5t17 46.5v462h-12l-217 -550h-16l-217 550h-17v-471q0 -49 90 -49v-30h-219z" />
<glyph unicode="&#xe000;" horiz-adv-x="860" d="M0 860h860v-860h-860v860z" />
</font>
</defs>
</svg>
